Android軟體

Android 上免費又優質的萬用播放軟體 — MoboPlayer



智慧型手機除了看電子書,上網,玩遊戲之外還能做什麼呢?其實還可以拿來當做影片撥放器,尤其現在的高階 Android 手機幾乎都是雙核心起跳了,只要搭配好的播放軟體其實輕而易舉的就可以播放許多影片,今天要跟各位介紹超好用的萬用播放軟體就是 MoboPlayer,這套軟體好用到一整個不行,而且還開啟硬解模式來播放,如果放了解析度太高的影片就要看您的手機效能撥不撥的動囉!

左圖:MoboPlayer 操作主畫面。
右圖:相關設定。







左圖:檔案瀏覽模式。
右圖:用手指在檔案上面長按,就可以呼叫出選單來,當中就有一個選項是硬解播放,透過此方式就可以使用硬解播放功能。

相關設並

支援的播放格式如下,也可透過設定來修改預設值,看是使用軟解還是硬解。

MoboPlayer 播放畫面

之前參加 Samsung Galaxy SII 台北體驗會現場實測狀況

想知道自己手機效能好不好的朋友可參考上面的影片來實際播放比較一下,大概就能知道自己手機的能耐到哪了,Samsung Galaxy SII VS HTC Desire HD 第二回合測試環境如下:

  • 播放軟體:MoboPlayer 1.2.145
  • 檔案名稱:[MV] Girls’ Generation -Tell Me Your Wish (Genie) (Full HD Samsung Demo) [bambimiri.blogspot]
  • 檔案大小:550 MB
  • 檔案下載位置:MegaUpload 有興趣的朋友可以下載回來測試看看喔!
  • 檔案資訊:
  • Complete name :[MV] Girls’ Generation -Tell Me Your Wish (Genie) (Full HD Samsung Demo) [bambimiri.blogspot].tp
  • Format : MPEG-TS
  • File size : 550 MiB
  • Duration : 2mn 6s
  • Overall bit rate : 36.3 Mbps
  • Video #481
  • ID : 481 (0x1E1)
  • Menu ID : 1 (0x1)
  • Format : MPEG Video
  • Format version : Version 2
  • Format profile : [email protected]
  • Format settings, BVOP : Yes
  • Format settings, Matrix : Default
  • Format settings, GOP : M=3, N=15
  • Codec ID : 2
  • Duration : 2mn 6s
  • Bit rate mode : Constant
  • Bit rate : 35.0 Mbps
  • Width : 1 920 pixels
  • Height : 1 080 pixels
  • Display aspect ratio : 16:9
  • Frame rate : 29.970 fps
  • Color space : YUV
  • Chroma subsampling : 4:2:0
  • Bit depth : 8 bits
  • Scan type : Interlaced
  • Scan order : Top Field First
  • Bits/(Pixel*Frame) : 0.563
  • Stream size : 516 MiB (94%)
  • Audio #482
  • ID : 482 (0x1E2)
  • Menu ID : 1 (0x1)
  • Format : AC-3
  • Format/Info : Audio Coding 3
  • Mode extension : CM (complete main)
  • Codec ID : 129
  • Duration : 2mn 6s
  • Bit rate mode : Constant
  • Bit rate : 448 Kbps
  • Channel(s) : 6 channels
  • Channel positions : Front: L C R, Side: L R, LFE
  • Sampling rate : 48.0 KHz
  • Bit depth : 16 bits
  • Video delay : -67ms
  • Stream size : 6.77 MiB (1%)
  • Language : English
  • Samsung Galaxy SII 軔體版本:官方 Android 2.3.3
  • HTC Desire HD 軔體版本:官方 Android 2.2.1
  • 其他:HTC Desire HD 使用 MoboPlayer 無法點選直接播放,必須使用硬解播放才可播放,但是全程沒有聲音。

感想
MoboPlayer 搭配高階雙核手機與 HDMI 輸出,簡直就是隨身的多媒體播放器了,出差旅遊隨時隨地都能播放自己想看的影片!傑克這真的太神奇了~看完了以上的介紹還不趕快去裝裝這套超優的萬用播放器到您的手機!

軟體下載與安裝方式(轉貼請註明 來源與出處,並遵循CC條款約定)

  • 軟體名稱:MoboPlayer
  • 軟體來源:Market
  • 軟體性質:免費。
  • 語系:中文
  • 版本資訊:1.2
  • 測試機型:HTC Sensation、Samsung GALAXY SII
  • Leo 評論:
  • 安裝方式:透過 Market 搜尋軟體名稱點選即可安裝

QR-Code 快速下載連結
下載教學:
教您如何使用 QR-Code 來下載 Android 軟體
qrcode



用LINE傳送

關於作者

Leo

Leo

喜愛旅遊並沉迷科技應用數十年無法自拔的重度 3C 上癮者!

11 回應

發表評論