3C週邊 汽車百貨

『開箱』守護之星 GS500 行車記錄器

昨天在 PCHOME 24H 購物發現了一款◤6/22整點特賣~限時↘$999◢【守護之星】GS500行車紀錄器,原價 1999 限時特價 999 ,研究了一下商品規格發現支援 H.264 格式,當下二話不說就決定買一台回來玩玩看,畢竟觀望行車記錄器已經有很長一段時間了,就這樣興高采烈的等待小黑貓咬來囉!



開箱
在 PC HOME 24H 購物的好處就是隔天就可以拿到東西了

 

外包裝清楚的標示主要功能,八倍變焦、四顆紅外線 LED 燈、支援 AV 輸出。

相關配件:車架、車充、USB 傳輸線、AV輸出訊號線、說明書、GS500 本體。

上面還標示著台灣專用。

將螢幕打開之後,也有清楚的貼紙標示著主要功能。

GS 500 本體與車架結合的模樣。

右側則是相關按鈕與 USB 電源輸入、AV 輸出。

左側則是開關與目錄、錄影照相實體按鈕

鏡頭旁則是有四顆紅外線 LED 提供夜間照明。

實測
拿到之後很開心趕快外出實際錄影測試一番,然後趕快把電腦打開,將剛剛錄影的檔案實際回放一下。

沒想到!!!畫質如此的不堪,停紅綠燈都看不到前車的車牌(或許是太陽太大),但是整個畫面一整個朦朧的感覺,看完一整個無言呀!(可能是 Leo 對於此款的期望值過高所造成的嚴重落差感)於是用播放軟體檢視了一下檔案內容,五分鐘的檔案居然要 430MB 這是哪國的 H.264 呀!

  • General
  •     Complete name : H:\DCIM\101DSCIM\PICT0003.AVI
  •     Format : AVI
  •     Format/Info : Audio Video Interleave
  •     File size : 430 MiB
  •     Duration : 5mn 0s
  •     Overall bit rate : 12.0 Mbps
  •   Video #0
  •     ID : 0
  •     Format : M-JPEG
  •     Codec ID : MJPG
  •     Duration : 5mn 0s
  •     Bit rate : 21.1 Mbps
  •     Width : 1 281 pixels
  •     Original width : 1 280 pixels
  •     Height : 960 pixels
  •     Display aspect ratio : 4:3
  •     Frame rate : 29.678 fps
  •     Color space : YUV
  •     Chroma subsampling : 4:2:0
  •     Bit depth : 8 bits
  •     Bits/(Pixel*Frame) : 0.578
  •     Stream size : 754 MiB
  •   Audio #1
  •     ID : 1
  •     Format : PCM
  •     Format settings, Sign : Unsigned
  •     Codec ID : 1
  •     Codec ID/Hint : Microsoft
  •     Duration : 5mn 0s
  •     Bit rate mode : Constant
  •     Bit rate : 192 Kbps
  •     Channel(s) : 1 channel
  •     Sampling rate : 24.0 KHz
  •     Bit depth : 8 bits
  •     Stream size : 6.87 MiB (2%)
  •     Interleave, duration : 256 ms (7.58 video frames)

什麼!!!!!!!!壓縮格式居然是 M-JPEG,靠!這跟商品頁面標示的 H.264 完全不同,而且機器內的選單也沒有什麼設定可以調整壓縮格式的,天呀~~~這時代居然還有標示與事實不符的產品,當下一整個涼掉,不幸中的大幸就是 PCHOME 購物還有七天鑑賞期可以辦理退貨,當下決定這台就給他退掉~~在這也要跟聽了 Leo 推薦而去購買的朋友說聲抱歉!!!請趕快退掉在鑑賞期內退掉這個產品吧!別讓廠商給得逞了,看來便宜真的沒好貨~繼續努力尋找 C/P 值高的行車記錄器囉!


用LINE傳送

關於作者

Leo

Leo

喜愛旅遊並沉迷科技應用數十年無法自拔的重度 3C 上癮者!

發表評論